Skip to main content

Otis Grove Live at Camp Kee-Wamee on 2013-09-14


Topics Wormfest 2013


Otis Grove
2013-09-14
Camp Kee-Wanee
Greenfield, MA
Wormtown Music Festival
Vernville Stage

BSC1 (hypers > FR-2LE [BA TMod] (24/48)
CF Card > Sound Forge Pro 10.0 (fades, Normalize, resample iZotope 64-Bit SRC, dither iZotope MBIT+ Dither) > CD Wav (tracking) > TLH > Flac (level 8)
DFC/DIN/8' high
Tags added in Foobar2000

Taped and Transferred by Brian V.

01. Intro
02. The Grind
03. Bobby Nosox
04. It's All Good
05. Oteil intro
06. Fat Cakes %
07. Think %
08. My Peeps
09. Fried Chicken & Biscuits


Collection OtisGrove
Band/Artist Otis Grove
Date September 14, 2013
Venue Camp Kee-Wamee
Location Greenfield, MA

Source BSC1 (hypers) > FR-2LE [BA TMod] (24/48)
Lineage CF Card > Sound Forge Pro 10.0 (fades, Normalize, resample iZotope 64-Bit SRC, dither iZotope MBIT+ Dither) > CD Wav (tracking) > TLH > Flac (level 8)
Taped by Brian V.
Transferred by Brian V.


Notes

% with Oteil Burbridge on bass

Thanks to everyone that put Wormtown Music Festival together and for the tapers spot.
***Support Bands That Allow Taping/Trading***

shntool output
length expanded size cdr WAVE problems fmt ratio filename
0:42.25 7467644 B --- -- ---xx flac 0.3488 otisgrove2013-09-14s1t01.flac
5:40.06 59990156 B --- -- ---xx flac 0.6027 otisgrove2013-09-14s1t02.flac
5:58.45 63257084 B --- -- ---xx flac 0.5656 otisgrove2013-09-14s1t03.flac
5:11.60 55001564 B --- -- ---xx flac 0.5305 otisgrove2013-09-14s1t04.flac
8:58.47 95013788 B --- -- ---xx flac 0.5415 otisgrove2013-09-14s1t05.flac
0:32.59 5783612 B --- -- ---xx flac 0.4006 otisgrove2013-09-14s1t06.flac
16:28.49 174398492 B --- -- ---xx flac 0.5588 otisgrove2013-09-14s1t07.flac
8:45.52 92732348 B --- -- ---xx flac 0.5847 otisgrove2013-09-14s1t08.flac
8:48.67 93296828 B --- -- ---xx flac 0.5787 otisgrove2013-09-14s1t09.flac
61:07.35 646941516 B 0.5613 (9 files)

Reviews

There are no reviews yet. Be the first one to write a review.
PEOPLE ALSO FOUND
Otis Grove
by Otis Grove
94
0
0
Source: AKG c214 + SBD (mono) > R44 (24/48)
Otis Grove
by Otis Grove
22
0
0
Source: BSC1 (hypers) > FR-2LE [BA TMod] (24/48)
Otis Grove
by Otis Grove
84
0
0
Source: DPA 4011 > V3 Digital > R44 (24/48)
Otis Grove
by Otis Grove
14
0
0
Source: DPA 4011 > V3 Digital + SBD > R44 (24/96)
Otis Grove
by Otis Grove
49
0
0
Source: DPA 4011 > V3 Digital + SBD > R44 (24/96)
Otis Grove
by Otis Grove
32
0
0
Source: DPA 4011 > V3 Digital > + SBD (mono) > R44 (24/96)
Otis Grove
by Otis Grove
86
0
0
Source: BSC1 (hypers) > Silver Cables > FR-2LE [BA TMod] (24/48)
Otis Grove
by Otis Grove
29
0
0
Source: BSC1 (hypers) > FR-2LE [BA TMod] (24/48)
Otis Grove
by Otis Grove
47
0
0
Source: DPA 4011 > V3 Digital + SBD > Tascam DR680 (24/96)
Otis Grove
by Otis Grove
31
0
0
Source: DPA 4011 > V3 Digital > + SBD (mono) > R44 (24/96)